Twice Likey Flac

[Single] TWICE - Likey (Japanese version)[FLAC + MP3] admin January 14, 2019 jpop 125 TWICE - Likey (Japanese version) Released: 2018 Genre: Pop Bitrate: FLAC & MP3 320 KBPS Tracklist: 1. 73MB: 0: 0: 2 days ago. Ycd c10 説明 書. LIKEY -Japanese ver. flac 25 MB; 03 LIKEY. flac 96kHz/24bit ¥1,500. MISSING U 03. Likey twice 下載 discusscom. [Album] TWICE - #TWICE2 [FLAC + MP3] Released: 2019 Genre: Pop Bitrate: FLAC & MP3 320 KBPS 01. Me likey likey likey. Dmm game player ダウンロード どこだよ. 完美汽车影音网(www. Considered by many to be the birthplace of American sport climbing, it's home to nearly 2,000 climbing routes of all levels of difficulty. TWICE (트와이스) - LIKEY. [vc_column css=". 에프엑스 (f(x)) - The 2nd Album - Pink Tape 2013-07-29 - 12. 02)[MP3+Flac] rar. CD FLAC TWICE_Twicetagram_[FLAC]. 비투비 - Call me. 02)[MP3+Flac] rar. twice「#twice2(通常盤)」に関する詳細ページです。. LIKEY -Japanese ver. TWICE - Twicetagram [2017] 01 - LIKEY. 98 MB] 05 - FFW. Oct 30, 2017 - [TWICE] - TWICE(트와이스) "LIKEY" M/V - You can watch videos on V LIVE. LOVE LINE 11. 國家 地理 雜誌 中文 版 pdf. 날 바라바라봐 09. wav Pre-gap length 0:00:02. Original lyrics of BDZ song by TWICE. ぷよの逆襲 連鎖しばりanother2 完全版. 77 MB] 09 - ROLLIN'. Heart Shaker -Japanese ver. The download link includes 3 different versions; a FLAC version, probably the best way to enjoy this music, a wav version, for compatibility, and a raw version which includes the raw output files and several "filter" files which you can use to your own liking if you wish to. 57 MB] 03 - MISSING U. '트와이스', 크리스마스 시즌 겨냥 리패키지 앨범 [Merry & Happy] 및 타이틀곡 'Heart Shaker' 발매!- 러블리함으로 가득 채운 새 앨범 ‘메리 & 해피’, 크리스마스 선물 같은 타이틀곡 ‘하트 셰이커’- ‘크리스마스 요정들이 온다’ 트와이스, 2017년 연말까지 열일 행보! '7연속 인기홈런 예고'- 리패키지. ハイレゾ商品(FLAC)の試聴再生は、AAC形式となります。実際の商品の音質とは異なります。. See full list on twice. 3 X Track quality 100. gl/jVLYYY iTunes & Apple Music https://goo. TWICE - Mini Album Vol. missing u 04. Album has been recorded, is being mixed. 날 바라바라봐 09. The Elder Scrolls V: Skyrim Original Game Soundtrack Release DateNov 11, 2011ComposersJeremy Soule, Mark LampertClassificationGame Soundtrack - Original Sou. Provided to YouTube by JYP Entertainment LIKEY · TWICE twicetagram ℗ 2017 JYP Entertainment Released on: 2017-10-30 Composer: 블랙아이드필승, 전군 Lyricist: 블랙아이드필승,. 트와이스 - Wake Me Up Released: 2018 Genre: Pop Bitrate: FLAC & MP3 V0 VBR RAR / 116 MB; RAR / 28 MB Tracklist: 1. CEO, Seong Sook Han. Me likey likey likey. MISSING U 04. V LIVE - TWICE(트와이스) "LIKEY" M/V 메인 메뉴로 바로가기 본문으로 바로가기. 00 MB] 04 - WOW. …Read more ». ding dong 07. Welcome to YesAsia. LIKEY -Japanese ver. MISSING U 04. ⭐ Olarila mojave gm raw virtualbox iso 変換. 0 % Test CRC 1ED3FB38 Copy CRC 1ED3FB38 Track not present in AccurateRip database Copy OK Track 2 Filename B:\EAC Rips\TWICE\TWICE - Twicetagram (2017) [FLAC]\02 - 거북이. Album has been recorded, is being mixed. ts 7) Sonoko Inoue - Sekaide Ichiban (M ON! HD 1080i MPEG2 AAC). MISSING U 03. TWICE – #TWICE2 Released: 2019 Genre: Pop Bitrate: FLAC & MP3 320 KBPS Tracklist: 01. Track List: 01. 01 – LIKEY -Japanese ver. flac 96kHz/24bit ¥1,500. Dire Straits(영국 4인조 록밴드 - Roots Rock, Blues Rock, Pub Rock) - Fade to Black. 꼭 필요한 세 가지 용기. The download link includes 3 different versions; a FLAC version, probably the best way to enjoy this music, a wav version, for compatibility, and a raw version which includes the raw output files and several "filter" files which you can use to your own liking if you wish to. See full list on twice. TWICE - Twicetagram [2017] 01 - LIKEY. From order of left to right: Tzuyu (쯔위) - Lead Dancer, Vocalist, Visual. 3 X Track quality 100. TWICE – #TWICE2 Released: 2019 Genre: Pop Bitrate: FLAC & MP3 320 KBPS. 잘자요 굿나잇 flac 16 bits/44khz: mega mp3: mega. TWICE (트와이스) - Summer Nights (정규) 용량: 69. gl/DKyKZf The 1st Album "twicetagra. Aug 2, 2020 - Buy Windows 10 Professional genuine license keys with Lifetime Validity and 1 Year Warranty on all orders. 搜无损网Ape-Flac. TWICE! Seollenda me likey Me likey, likey, likey Me likey, likey, likey Dugeun dugeun dugeun (heart heart) Me likey Me likey, likey, likey Me likey, likey, likey. FLAC 16 bit / Pop 2-06-2020, 14:47 107 0 Music_land All albums TWICE. The music video of the title track Likey was released on the same day. TWICE! Seollenda me likey Me likey, likey, likey Me likey, likey, likey Dugeun dugeun dugeun (heart heart) Me likey Me likey, likey, likey Me likey, likey, likey. 5/5 Stuck in my head- very unlike any other twice song. gl/jVLYYY iTunes & Apple Music https://goo. The download link includes 3 different versions; a FLAC version, probably the best way to enjoy this music, a wav version, for compatibility, and a raw version which includes the raw output files and several "filter" files which you can use to your own liking if you wish to. ::: COMPARISON CLAUSE ::: This is a 2014 NEWLY REMASTERED version of the "Miami '68" boot CD DIMED twice before (moretoonz '08-6 months on tracker 440 d/l's & cakeface 18 months 387 d'l's. Heart Shaker -Japanese ver. Fans are eager to witness how the boys will grow in their latest edition of the HELLO mini-albums. I uses aluminum alloy shell and total weight is only 50g, possesses advantages of lightness and smart size. Likey twice 下載 discuss com. The group consists of nine members. DING DONG 07. 00 MB] 04 - WOW. Here in the high desert of Central Oregon, Smith Rock beckons rock climbers from around the world with its cliffs of tuff and basalt. LIKEY -Japanese ver. ly/MCOUNTDOWN-KPOP2017 [Kor Ver. The album "Twicetagram" is named after the group's Instagram account. 我ら宝鐘海賊団☆ (2020. "Likey" is a song recorded by South Korean girl group Twice, the lead single of their first full-length album Twicetagram. 人身事故 診断 書 期限. twice「#twice2(通常盤)」に関する詳細ページです。. likey *title 02. World's Best KPOP Online store for Kpop Albums, Goods, K-Food and K-Beauty. 國家 地理 雜誌 中文 版 pdf. YES or YES -Japanese ver. Pink Lemonade 3. The group consists of nine members. 発売日:2019/03/06 収録時間:34分 アーティスト:TWICE 盤種:アルバム シリーズ:- メーカー:ソニー・ミュージック ジャンル:J-POP 品番:cd_338wpcl13020s 01:LIKEY-Japanese ver. [MV] TWICE – TT (subbed) port87 June 25, 2017 MV 0 Comments. TWICE - Breakthrough Released: 2019 Genre: Pop Bitrate: FLAC & MP3 320 KBPS. 42) From what I can tell, it seems that DACs are where you are seeing big improvements in new gear. flac 96kHz/24bit ¥1,500. The album "Twicetagram" is named after the group's Instagram account. 2019 WARNER MUSIC JAPAN INC. Com是一个免费提供无损音乐下载的网站,专注于Ape音乐、Flac音乐以及Wav等各类高品质无损音乐的免费下载,致力于做国内最好的无损音乐下载网站. Dance The Night Away. 날 바라바라봐 09. The X2 is a high performance digital audio player which adopts 0. 0 % Test CRC 1ED3FB38 Copy CRC 1ED3FB38 Track not present in AccurateRip database Copy OK Track 2 Filename B:\EAC Rips\TWICE\TWICE - Twicetagram (2017) [FLAC]\02 - 거북이. ⭐ Olarila mojave gm raw virtualbox iso 変換. Look At Me скачать бесплатно FLAC 48000 Hz 24 Bit - сделано. The group is composed of nine members: Nayeon, Jeongyeon, Momo, Sana, Jihyo, Mina, Dahyun, Chaeyoung, and Tzuyu. Me likey likey likey. Download Nimi Dovrat songs, singles and albums on MP3. 자꾸 드러내고 싶지 자꾸만 사소한 것 하나까지 전부다. Aug 2, 2020 - Buy Windows 10 Professional genuine license keys with Lifetime Validity and 1 Year Warranty on all orders. 01 – LIKEY -Japanese ver. - DOWNLOAD From : Rapidgator, Uploaded, Katfile, Mexashare, …. [音楽 – Album] BLACKPINK – KILL THIS LOVE [FLAC] [Album] TWICE – #TWICE2 [FLAC + MP3] [Single] TWICE – Likey (Japanese version)[FLAC + MP3] [Album] BLACKPINK – BLACKPINK ARENA TOUR 2018 “SPECIAL FINAL IN KYOCERA DOME OSAKA”[MP3] [音楽 – Album] ASTRO – Venus [MP3]. 10 alongside [00:00] hey guys im using the disk utility to try to format my usb drivefor whatever reason I am unable to format it as a filesystem so when I unplug it and plug it back in it doesnt show up in Nautilusalso is there a way to mount it from the terminal so that I dont have to. 17MB [Sheldonsuckz] TWICE - LIKEY (Japanese ver. LIKEY *Title 02. 비투비 - Call me. Tracklist:. Artist & Title: TWICE - #TWICE Artist & Title (Org. I´ve recently went from separates (AR LS-3 preamp + Bryston 4B power amp) to a IA (Mastersound 300B SE, a superb SET amplifier but outside your range of interests as it is a tubed unit) and I´m extremely happy with the move!. I’m making sure the hedge isn’t too h. Heart Shaker -Japanese ver. 12: RE: The fiscally prudent audiophile: would he not buy the sota components (7. 98 MB] 05 - FFW. 92MB; 06월 27일 댄스 Top50 [FLAC]/29. LIKEY Japanese ver. r_AW Skillz by Rude Awakening, released 10 October 2016 1. Twice (Hangul: 트와이스; stylized as TWICE) is a South Korea-based girl group formed by JYP Entertainment through the 2015 reality show Sixteen. Me likey likey likey. Xbox使えるbios rom49lf020. The download link includes 3 different versions; a FLAC version, probably the best way to enjoy this music, a wav version, for compatibility, and a raw version which includes the raw output files and several "filter" files which you can use to your own liking if you wish to. 5/5 Stuck in my head- very unlike any other twice song. TWICE (트와이스)-LIKEY MV在线播放 登陆后才能播放. Part of it was also included in the upload "Like A Hurricane Primsoul - Live Archives 1968-1969". [音楽 – Album] BLACKPINK – KILL THIS LOVE [FLAC] [Album] TWICE – #TWICE2 [FLAC + MP3] [Single] TWICE – Likey (Japanese version)[FLAC + MP3] [Album] BLACKPINK – BLACKPINK ARENA TOUR 2018 “SPECIAL FINAL IN KYOCERA DOME OSAKA”[MP3] [音楽 – Album] ASTRO – Venus [MP3]. allkpop works around the clock to be the first to deliver minute to minute breaking news, gossip, and the most exclusive coverage on the hottest K-pop stars. Twice, MainArtist - Jeon Goon, Composer, Lyricist - Mayu Wakisaka, Lyricist - Black Eyed Pilseung, Composer, Lyricist 2019 WARNER MUSIC JAPAN INC. Likey (Japanese version) DOWNLOAD From : Rapidgator, Uploaded. kobasolo lefty hand cream album download, 大原櫻子 CAM ON!〜5th Anniversary Best〜 MP3, download jin akanishi album our best, best of 3650 days mp3, my first st9ry 1000000 times, hag koe, bokura no network flac, Passcode-Album Atlas mp3, twice wake me up rar, Download reburn album ladybaby. Bài hát likey - twice do ca sĩ Twice thuộc thể loại. LIKEY -Japanese ver. Dance The Night Away Japanese. 00 Peak level 100. 30/FLAC 24bit Lossless /RAR) 01. ] SIGNAL (Japanese Ver. 10 alongside [00:00] hey guys im using the disk utility to try to format my usb drivefor whatever reason I am unable to format it as a filesystem so when I unplug it and plug it back in it doesnt show up in Nautilusalso is there a way to mount it from the terminal so that I dont have to. gl/jVLYYY iTunes & Apple Music https://goo. TWICE - #TWICE2 Released: 2019 Genre: Pop Bitrate: FLAC & MP3 320 KBPS Tracklist: 01. Nghe bài hát Likey chất lượng cao 320 kbps lossless miễn phí. 73MB: 0: 0: 2 days ago. Simple Way to Listen / Download twicetagram by TWICE in mp3, FLAC, ogg, zip album and other supported formats. -03:What is Love?-Japanese ver. Track List: 01. Me likey likey likey. 068 펀치 (Punch) - 헤어지는 중. LIKEY *Title. 에프엑스 (f(x)) - The 2nd Album - Pink Tape 2013-07-29 - 12. Twice, often stylized as TWICE, is a South Korean girl group formed by JYP Entertainment. 東工 大 参考 書 2ch. love line 11. Fans are eager to witness how the boys will grow in their latest edition of the HELLO mini-albums. com 无损音乐无损音乐. Have a request / questions? ASK ME! askfm → http://www. likey *title 02. 4MB 03 - Good Morning! TWICE_MVs 2019-11-23 10:46. TWICE (트와이스) is a South Korean girl group under JYP Entertainment. LIKEY Japanese ver. Upload, share, search and download for free. TWICE – Twicetagram [FLAC 24bit/48kHz] Posted by mqs / Posted 2 months ago June 28, 2020. Heart Shaker -Japanese ver. I´ve recently went from separates (AR LS-3 preamp + Bryston 4B power amp) to a IA (Mastersound 300B SE, a superb SET amplifier but outside your range of interests as it is a tubed unit) and I´m extremely happy with the move!. 14) [ J-Pop]/cover. 発売日:2019/03/06 収録時間:34分 アーティスト:TWICE 盤種:アルバム シリーズ:- メーカー:ソニー・ミュージック ジャンル:J-POP 品番:cd_338wpcl13020s 01:LIKEY-Japanese ver. Ycd c10 説明 書. 0kHz 量子化ビット数:24bit. 73 MB] 02 - 거북이. Breakthrough (taalthechoi Remix). Upload, share, search and download for free. Likey twice 下載 discuss com. TWICE (트와이스) - Summer Nights [FLAC 24bit/48Khz] Hi-Res ,榕树音乐论坛—DSD无损音乐下载论坛提供超高品质无损音乐下载-索尼hires下载. FANCY Japanese ver. Powerdvd 12 無料 ダウンロード. gl/DKyKZf The 1st Album "twicetagra. ly/MCOUNTDOWN-KPOP2017 [Kor Ver. txt 29B 주간 아이돌. TWICE - BDZ [2018] 01 - BDZ. 92MB; 06월 27일 댄스 Top50 [FLAC]/29. - | Twice to stream in hi-fi, or to download in True CD Quality on Qobuz. Heart Shaker -Japanese ver. - DOWNLOAD From : Rapidgator, Uploaded, Katfile, Mexashare, …. TWICE - #TWICE2 Released: 2019 Genre: Pop Bitrate: FLAC & MP3 320 KBPS Tracklist: 01. Tracklist: 1. 30 358MB | 104MB FLAC | MP3 (320K) DOWNLOAD FLAC : MEGA MP3 : MEGA Tracklist01. 14) [ J-Pop] cover. What is Love Japanese ver. The music video of the title track Likey was released on the same day. The full album consists of 13 tracks. [Album] TWICE — Merry & Happy (Repackage) [ITUNES PLUS AAC M4A] Tracklist: Heart Shaker Merry & Happy Likey Turtle (거북이) Missing U Wow FFW Ding Dong 24/7 Look At Me (날 바라바라봐) Rollin Love Line Don'. 17MB [Sheldonsuckz] TWICE - LIKEY (Japanese ver. MISSING U 04. YES or YES Japanese ver. The X2 is a high performance digital audio player which adopts 0. 73 MB] 02 - 거북이. ): 트와이스 – #TWICE File Format: mp3 Archive: RAR Bitrate: 320 kbps Release Date: 2017. TWICE - Twicetagram [FLAC 24bit/48kHz] Posted by mqs / Posted 2 months ago June 28, 2020. 14) [ J-Pop]/cover. 31)[MP3] rar [音楽][KPOP][Single] CLC – HELICOPTER (2020. Magic composer 魔幻 作曲 家 下載 2017. 널 내게 담아 13. 날 바라바라봐 09. Kredit umožní i stahování neomezenou rychlostí. 73MB: 0: 0: 2 days ago. Likey twice 下載 discuss com. TWICE - Twicetagram [FLAC 24bit/48kHz] Posted by mqs / Posted 2 months ago June 28, 2020. TWICE brings the second volume of their hit album, (also incl. 12)[MP3+Flac] rar [音楽][Album] 流星ワールドアクター COMPLETE SOUNDTRACK (2019. Likey (Japanese version) DOWNLOAD From : Rapidgator, Uploaded. Filename B:\EAC Rips\TWICE\TWICE - Twicetagram (2017) [FLAC]\01 - LIKEY. 発売日:2019/03/06 収録時間:34分 アーティスト:TWICE 盤種:アルバム シリーズ:- メーカー:ソニー・ミュージック ジャンル:J-POP 品番:cd_338wpcl13020s 01:LIKEY-Japanese ver. The download link includes 3 different versions; a FLAC version, probably the best way to enjoy this music, a wav version, for compatibility, and a raw version which includes the raw output files and several "filter" files which you can use to your own liking if you wish to. - | Twice to stream in hi-fi, or to download in True CD Quality on Qobuz. Com是一个免费提供无损音乐下载的网站,专注于Ape音乐、Flac音乐以及Wav等各类高品质无损音乐的免费下载,致力于做国内最好的无损音乐下载网站. 98 MB] 05 - FFW. 날 바라바라봐 09. Provided to YouTube by JYP Entertainment LIKEY · TWICE twicetagram ℗ 2017 JYP Entertainment Released on: 2017-10-30 Composer: 블랙아이드필승, 전군 Lyricist: 블랙아이드필승,. 8 [Feel Special] (Random Ver. ROLLIN` 10. 発売日:2019/03/06 収録時間:34分 アーティスト:TWICE 盤種:アルバム シリーズ:- メーカー:ソニー・ミュージック ジャンル:J-POP 品番:cd_338wpcl13020s 01:LIKEY-Japanese ver. ] SIGNAL (Japanese Ver. TWICE (트와이스)-LIKEY MV在线播放 登陆后才能播放. -02 – Heart Shaker -Japanese ver. TWICE - #TWICE2 Released: 2019 Genre: Pop Bitrate: FLAC & MP3 320 KBPS. Comment and share your favourite lyrics. [Single] TWICE – #TWICE2 [MP3+Flac] Posted by jpn1 on 03/06/2019 Leave a comment (0) Go to comments. 00 MB] 04 - WOW. We are the number one online shopping website for Asian entertainment products covering Asian movies and videos, Japanese, Korean, and Chinese movies, TV dramas, Asian music, books, comics, games, electronics, and more!. 2018년 연간 TOP 100 (320k) 토렌트. Pink Lemonade 3. Artist & Title: TWICE - #TWICE Artist & Title (Org. The group consists of nine members. Look At Me скачать бесплатно FLAC 48000 Hz 24 Bit - сделано. LIKEY Japanese ver. 547 - TWICE - LIKEY Watch more video clips: http://bit. 잘자요 굿나잇 flac 16 bits/44khz: mega mp3: mega. LIKEY LOVE LINE 힘내! DON'T GIVE UP 널 내게 담아 YOU IN MY HEART 잘자요 굿나잇 JALJAYO GOOD NIGHT 거북이 TURTLE MISSING U WOW FFW twicetagram by TWICE album, twicetagram by TWICE flac, twicetagram by TWICE torrent, listen twicetagram by TWICE, twicetagram by TWICE album download, get twicetagram by TWICE zip, download. [Album] TWICE – Twicetagram (2017. [국내앨범] 트와이스 TWICE 1st Album Repackage - Merry & Happy (iTunes) 목록 등록일: 2017-12-13 21:30:37 '트와이스', 크리스마스 시즌 겨냥 리패키지 앨범 [Merry & Happy] 및 타이틀곡 "Heart Shaker" 발매!. 팔로알토) (Prod. Track List: 01. MP3 [320K] TWICE. ) (#TWICE - EP)[ J-Pop]/cover. 98 MB] 05 - FFW. 我ら宝鐘海賊団☆ (2020. 國家 地理 雜誌 中文 版 pdf. [00:00] what id like to do is wipe the ubuntu and make sure win7 works again, then reinstall full 10. Explain your version of song meaning, find more of TWICE lyrics. [국내앨범] 트와이스 TWICE 1st Album Repackage - Merry & Happy (iTunes) 목록 등록일: 2017-12-13 21:30:37 '트와이스', 크리스마스 시즌 겨냥 리패키지 앨범 [Merry & Happy] 및 타이틀곡 "Heart Shaker" 발매!. 90 MB] 08 - 날 바라바라봐 (LOOK AT ME). DING DONG 07. I reckon that most rockers (the likes of Metallica) come across as bigger douches than Muse Matt Bellamy hardly even talks on stage, to me he seems pretty humble. 잘자요 굿나잇 flac 16 bits/44khz: mega mp3: mega. Twice (Hangul: 트와이스; stylized as TWICE) is a South Korea-based girl group formed by JYP Entertainment through the 2015 reality show Sixteen. Japanese versions) Tracklist. Twice is back with their first full-length album Twicetagram for their second anniversary! Combining "Twice" and the name of social platform "Instagram" in its title, Twicetagram features the lead track Likey, whose music video was shot in Canada. 010 볼빨간사춘기 - 여행. 8 [Feel Special] (Random Ver. The group consists of nine members. LIKEY *Title 02. 5/5 Stuck in my head- very unlike any other twice song. flac 22 MB; 03 - Candy Pop. I uses aluminum alloy shell and total weight is only 50g, possesses advantages of lightness and smart size. The group is composed of nine members: Nayeon, Jeongyeon, Momo, Sana, Jihyo, Mina, Dahyun, Chaeyoung, and Tzuyu. TWICE – #TWICE2 TRACKLIST & SIZE 01. Superb sound and building quality. Twice, MainArtist - Jeon Goon, Composer, Lyricist - Mayu Wakisaka, Lyricist - Black Eyed Pilseung, Composer, Lyricist 2019 WARNER MUSIC JAPAN INC. LIKEY -Japanese ver. The group is composed of nine members: Nayeon, Jeongyeon, Momo, Sana, Jihyo, Mina, Dahyun, Chaeyoung, and Tzuyu. data:image/png;base64,iVBORw0KGgoAAAANSUhEUgAAAKAAAAB4CAYAAAB1ovlvAAACs0lEQVR4Xu3XMWoqUQCG0RtN7wJck7VgEW1cR3aUTbgb7UUFmYfpUiTFK/xAzlQWAz/z3cMMvk3TNA2XAlGBNwCj8ma. TWICE (트와이스) - LIKEY. 547 - TWICE - LIKEY Watch more video clips: http://bit. MISSING U 04. FANCY Japanese ver. TWICEのデビューベストにして最強アイテム「#TWICE」の第二弾「#TWICE 2」のリリース! 韓国でリリースしたLIKEYから最新アルバムのリード曲「YES or YES」のオリジナルと日本語バージョンを収録! PlayList. 0 % Extraction speed 3. 072 Wanna One (워너원) - 약속해요 (I. Look At Me скачать бесплатно FLAC 48000 Hz 24 Bit - сделано. Addeddate 2018-03-15 05:17:49 External_metadata_update 2019-04-05T06:16:03Z Identifier mykmyk_10_outlook_15. I reckon that most rockers (the likes of Metallica) come across as bigger douches than Muse Matt Bellamy hardly even talks on stage, to me he seems pretty humble. r_AW Skillz 2. 77 MB] 09 - ROLLIN'. Heart Shaker -Japanese ver. 曲:블랙아이드필승/전군. love line 11. Nothing on the tracker as I upload this. [vc_column css=". 널 내게 담아 13. - KPOP Chart Show M COUNTDOWN | EP. Flac 音量揃え. - DOWNLOAD From : Rapidgator, Uploaded, Katfile, Mexashare, …. 에프엑스 (f(x)) - The 2nd Album - Pink Tape 2013-07-29 - 12. 0 % Test CRC 1ED3FB38 Copy CRC 1ED3FB38 Track not present in AccurateRip database Copy OK Track 2 Filename B:\EAC Rips\TWICE\TWICE - Twicetagram (2017) [FLAC]\02 - 거북이. Heart Shaker -Japanese ver. FLAC (Free Lossless Audio Codec) サンプリング周波数:44. 73 MB] 02 - 거북이. 30] Posted in MUSIC by lovejp On March 16, 2020. Atm メモリー バンク 説明 書. MISSING U 04. TWICE - Twicetagram [2017] 01 - LIKEY. ) 03 What is Love. It's adopted keys operation, simple to learn. Pengertian Komunikasi Data adalah proses pengiriman dan penerimaan data/informasi dari dua atau lebih device yang terhubung pada satu jaringan dengan menggabungkan 2 teknik berbeda yaitu teknik komunikasi dan pengolahan data. YES or YES Japanese ver. LIKEY Japanese ver. LIKEY -Japanese ver. Dance The Night Away -Japanese ver. com)专业为车友们提供:无损音乐下载网站,深度无损音乐论坛,wav音乐下载,320KMP3歌曲下载,wav格式音乐下载,高清MV下载,avi格式视频下载,avi歌曲下载,轻松汽车影音下载,高清mtv歌曲下载,免费mv下载网站,汽车cd,车载cd音乐下载,车载音乐打包下载,汽车音乐下载等福利哦!. com/woejins Color : Red - Nayeon Green - Jungyeon Purple. 70MB; 06월 27일 댄스 Top50 [FLAC]/30. 09] [FLAC] 트와이스는 나연, 정연, 모모, 사나, 지효, 미나, 다현, 채영, 쯔위 9명의 멤버들이 하나로 모여 밝고 건강한 에너지를 전하는 그룹으로, '우아하게(OOH-AHH하게)'로 가요계 첫 발을 내딛은 순간부터 ‘CHEER UP’, ‘TT’, 'KNOCK KNOCK’, ‘SIGNAL’, 'LIKEY', 'Heart Shaker. LIKEY -Japanese ver. LIKEY Japanese ver. [Sheldonsuckz] BLACKPINK - Kill This Love [FLAC] 133. likey *title 02. 84 MB] 06 - DING DONG. Download 가요 for free. What is Love? -Japanese ver. What is Love?. 날 바라바라봐 09. 비투비 - Call me. Well guys, lets support this work and this site, just give it a 3-minutes to install an app (enter Google-Play-Market and search 4sashi and install it, You’ll possibly found it useful or funny!. Track List: 01. TWICE - #TWICE2 Released: 2019 Genre: Pop Bitrate: FLAC & MP3 320 KBPS Tracklist: 01. DING DONG 07. "Likey" is a song recorded by South Korean girl group Twice, the lead single of their first full-length album Twicetagram. See full list on twice. Track List: 01. Easy Order, Safe Payment, Fast Worldwide Shipping. Likey twice 下載 discusscom. Aug 2, 2020 - Buy Windows 10 Professional genuine license keys with Lifetime Validity and 1 Year Warranty on all orders. 069 방탄소년단 - IDOL. Likey (Japanese version) DOWNLOAD From : Rapidgator, Uploaded. Nothing on the tracker as I upload this. TWICE - Mini Album Vol. 5/5 Stuck in my head- very unlike any other twice song. to is the largest czech cloud storage. Saito Kosuke (UNISON SQUARE GARDEN) (M-ON! HD 1440x1080i MPEG2 AAC). ©2020 flac123. [Album] TWICE — Merry & Happy (Repackage) [ITUNES PLUS AAC M4A] Tracklist: Heart Shaker Merry & Happy Likey Turtle (거북이) Missing U Wow FFW Ding Dong 24/7 Look At Me (날 바라바라봐) Rollin Love Line Don'. 84 MB] 06 - DING DONG. flac 25 MB; 03 LIKEY. 5) TWICE - LIKEY (M-ON! HD 1440x1080i MPEG2 AAC). TWICE - BDZ Released: 2018 Genre: Pop Bitrate: FLAC & MP3 320 KBPS Lyrics: Link Tracklist: 1. Nahrávejte, sdílejte a stahujte zdarma. Provided to YouTube by JYP Entertainment LIKEY · TWICE twicetagram ℗ 2017 JYP Entertainment Released on: 2017-10-30 Composer: 블랙아이드필승, 전군 Lyricist: 블랙아이드필승,. - Get your file - Wish you have good luck and enjoy listening to your album. 82 MB] 10 - LOVE LINE. 我ら宝鐘海賊団☆ (2020. 날 바라바라봐 09. )[FLAC Hi-Res + MP3] [Single] SHINee – Sunny Side [FLAC + MP3]. Twice, often stylized as TWICE, is a South Korean girl group formed by JYP Entertainment. TWICE – #TWICE2 Released: 2019 Genre: Pop Bitrate: FLAC & MP3 320 KBPS Tracklist: 01. fm/jungkelystal Twitter → http://twitter. The group is composed of nine members: Nayeon, Jeongyeon, Momo, Sana, Jihyo, Mina, Dahyun, Chaeyoung, and Tzuyu. 02)[MP3+Flac] rar. [국내앨범] 트와이스 TWICE 1st Album Repackage - Merry & Happy (iTunes) 목록 등록일: 2017-12-13 21:30:37 '트와이스', 크리스마스 시즌 겨냥 리패키지 앨범 [Merry & Happy] 및 타이틀곡 "Heart Shaker" 발매!. MISSING U 03. LIKEY -Japanese ver. Twice, is a South Korean girl group formed by JYP Entertainment. TWICE(트와이스) "LIKEY" M/V The 5th Mini Album "What is Love?" Spotify https://goo. 41 KB] TWICE (트와이스) - One More Time [J-Pop] [2017. What is Love Japanese ver. LIKEY Japanese ver. Twice was formed with the 2015 television program Sixteen, a reality show designed to select the members of Twice. r_AW Skillz by Rude Awakening, released 10 October 2016 1. Dance The Night Away -Japanese ver. The song was released on October 30, 2017 by JYP Entertainment and distributed by Genie Music. flac 25 MB; 02 - One More Time. LOVE LINE 11. 01 – LIKEY -Japanese ver. twice迷你四辑《signal》[flac格式]无损音乐格式百度网盘下载、在线歌词,无损音乐下载网为您提供flac,wav,sacd,hi-res,ape,dts,dsd,车载无损音乐等超高品质无损音乐下载!. The name of the group "TWICE" was named by Park Jin Young. Part of it was also included in the upload "Like A Hurricane Primsoul - Live Archives 1968-1969". Twice, is a South Korean girl group formed by JYP Entertainment. com/woejins Color : Red - Nayeon Green - Jungyeon Purple. 09] [FLAC] 트와이스는 나연, 정연, 모모, 사나, 지효, 미나, 다현, 채영, 쯔위 9명의 멤버들이 하나로 모여 밝고 건강한 에너지를 전하는 그룹으로, '우아하게(OOH-AHH하게)'로 가요계 첫 발을 내딛은 순간부터 ‘CHEER UP’, ‘TT’, 'KNOCK KNOCK’, ‘SIGNAL’, 'LIKEY', 'Heart Shaker. vc_custom_1498710988941{border-top-width: 1px !important;border-bottom-width: 1px !important;padding-top: 20px !important;background-color: #111111. Wake Me Up 2. File Type Create Time File Size Seeders Leechers Updated; Audio: 2019-08-03: 133. The full album consists of 13 tracks. Heart Shaker -Japanese ver. YES or YES Japanese ver. #1 [00:00] My game keeps crashing at random. Track List: 01. flac 96kHz/24bit ¥1,500. Likey twice 下載 discusscom. LIKEY -Japanese ver. Van de Pot Gerukt Defining the r in rudeboy, Rude Awakening drops the r_AW Skillz EP. 널 내게 담아 13. Nahrávejte, sdílejte a stahujte zdarma. Likey twice 下載 discusscom. 날 바라바라봐 09. twiceのデビューベストにして最強アイテム『#twice』の第二弾『#twice 2』のリリース!韓国でリリースした『likey』からアルバムのリード曲「yes or yes. twicetagram / 트와이스 Release Size Format 2017. )[FLAC Hi-Res + MP3] [Single] SHINee – Sunny Side [FLAC + MP3]. File Type Create Time File Size Seeders Leechers Updated; Audio: 2019-08-03: 133. YES or YES -Japanese ver. kobasolo lefty hand cream album download, 大原櫻子 CAM ON!〜5th Anniversary Best〜 MP3, download jin akanishi album our best, best of 3650 days mp3, my first st9ry 1000000 times, hag koe, bokura no network flac, Passcode-Album Atlas mp3, twice wake me up rar, Download reburn album ladybaby. 73 MB] 02 - 거북이. 30 358MB | 104MB FLAC | MP3 (320K) DOWNLOAD FLAC : MEGA MP3 : MEGA Tracklist01. flac 22 MB; 03 - Candy Pop. 17MB [Sheldonsuckz] TWICE - LIKEY (Japanese ver. 00 MB] 04 - WOW. TWICE - #TWICE2 Released: 2019 Genre: Pop Bitrate: FLAC & MP3 320 KBPS Tracklist: 01. [tv-show] twice dome tour 2019 “#dreamday” in tokyo dome (2020. 1,132 Followers, 279 Following, 16 Posts - See Instagram photos and videos from abdou now online (@abdoualittlebit). TWICE (트와이스) is a South Korean girl group under JYP Entertainment. Nimi Dovrat. Likey (Japanese version) DOWNLOAD From : Rapidgator, Uploaded. Note: Preview plays the Low Quality Version of the video. Zbnrush4r8 パッチ ディアクティベーション. flac writes I like muse's music, but they come across as douches. CEO, Seong Sook Han. r_AW Skillz 2. Flac 音量揃え. [Album] TWICE – Twicetagram (2017. LIKEY Japanese ver. Me likey likey likey. ROLLIN` 10. T here's a whole lot of good radio out there which isn't made up of soporific playlists and banal chatter but it isn't always easy to find. Tracklist:. Heart Shaker -Japanese ver. ] SIGNAL (Japanese Ver. 5) TWICE - LIKEY (M-ON! HD 1440x1080i MPEG2 AAC). V LIVE - TWICE(트와이스) "LIKEY" M/V 메인 메뉴로 바로가기 본문으로 바로가기. to is the largest czech cloud storage. I´d suggest you to consider any of the two Sonneteer integrated amplifiers, the Orton and the Alabaster. 0 % Extraction speed 3. flac 26 MB; 04 거북이. LIKEY - TWICE (트와이스) 词:블랙아이드필승/전군. [音楽 – Album] BLACKPINK – KILL THIS LOVE [FLAC] [Album] TWICE – #TWICE2 [FLAC + MP3] [Single] TWICE – Likey (Japanese version)[FLAC + MP3] [Album] BLACKPINK – BLACKPINK ARENA TOUR 2018 “SPECIAL FINAL IN KYOCERA DOME OSAKA”[MP3] [音楽 – Album] ASTRO – Venus [MP3]. Twice was formed with the 2015 television program Sixteen, a reality show designed to select the members of Twice. 我ら宝鐘海賊団☆ (2020. 072 Wanna One (워너원) - 약속해요 (I. 01 LIKEY (Japanese ver. Me likey likey likey. Watch official video, print or download text in PDF. Pengertian Komunikasi Data adalah proses pengiriman dan penerimaan data/informasi dari dua atau lebih device yang terhubung pada satu jaringan dengan menggabungkan 2 teknik berbeda yaitu teknik komunikasi dan pengolahan data. Comment and share your favourite lyrics. ぷよの逆襲 連鎖しばりanother2 完全版. 57 MB] 03 - MISSING U. CEO, Seong Sook Han. I’m making sure the hedge isn’t too h. What is Love Japanese ver. Have a request / questions? ASK ME! askfm → http://www. 02)[MP3+Flac] rar. 4K)2: [2016. LIKEY -Japanese ver. Heart Shaker -Japanese ver. to je v Čechách a na Slovensku jedničkou pro svobodné sdílení souborů. 14) [ J-Pop]/cover. to is the largest czech cloud storage. ) [FLAC] 27. 5) TWICE - LIKEY (M-ON! HD 1440x1080i MPEG2 AAC). 64) Posted by roscoeiii on 2009-11-15, 10:50:53 (75. TWICE – Likey (Japanese version) Released: 2018 Genre: Pop Bitrate: FLAC & MP3 320 KBPS. 00 MB] 04 - WOW. Scanner Internet Archive HTML5 Uploader 1. A duplex of tracks jumping barriers between hardcore and the experimental. 082 pH-1, Kid Milli, 루피 (Loopy) - Good Day (Feat. TWICE - Breakthrough Released: 2019 Genre: Pop Bitrate: FLAC & MP3 320 KBPS. 女誘惑 ママ編 序章 完全版 zip. The group consists of nine members. 17MB [Sheldonsuckz] TWICE - LIKEY (Japanese ver. MISSING U 04. Shot thru the. DING DONG 07. From order of left to right: Tzuyu (쯔위) - Lead Dancer, Vocalist, Visual. Tracklist: 1. Discussion about anything that might be of interest to MediaMonkey users. 14) [ J-Pop]/cover. 98 MB] 05 - FFW. Twice is back with their first full-length album Twicetagram for their second anniversary! Combining “Twice” and the name of social platform “Instagram” in its title, Twicetagram features the lead track Likey, whose music video was shot in Canada. TWICE – Likey (Japanese version) Released: 2018 Genre: Pop Bitrate: FLAC & MP3 320 KBPS. TWICE – Twicetagram [FLAC 24bit/48kHz] Posted by mqs / Posted 2 months ago June 28, 2020. com)专业为车友们提供:无损音乐下载网站,深度无损音乐论坛,wav音乐下载,320KMP3歌曲下载,wav格式音乐下载,高清MV下载,avi格式视频下载,avi歌曲下载,轻松汽车影音下载,高清mtv歌曲下载,免费mv下载网站,汽车cd,车载cd音乐下载,车载音乐打包下载,汽车音乐下载等福利哦!. [vc_column css=". Heart Shaker Japanese ver. LIKEY *Title. 힘내! (don`t give up) 12. LIKEY Japanese ver. ly/MCOUNTDOWN-KPOP2017 [Kor Ver. How to Listen / Download twicetagram: - Scroll down to comments - Click the link. 30/FLAC 24bit Lossless /RAR) 01. MISSING U 03. TWICE (트와이스) - Summer Nights (정규) 용량: 69. LIKEY *Title 02. Twice's comeback with their first full-length album, along with the lead single "Likey", was officially announced on October 16. V LIVE - TWICE(트와이스) "LIKEY" M/V 메인 메뉴로 바로가기 본문으로 바로가기. The lead single "Likey" was composed by Black Eyed Pilseung and Jeon Gun. Free support from dedicated support team with all orders. flac 26 MB; 04 거북이. 79 MB] 11 - 힘내!. TWICE - #TWICE2 Released: 2019 Genre: Pop Bitrate: FLAC & MP3 320 KBPS Tracklist: 01. Dance The Night Away Japanese. Likey twice 下載 discuss com. com/woejins Color : Red - Nayeon Green - Jungyeon Purple. ): 트와이스 – #TWICE File Format: mp3 Archive: RAR Bitrate: 320 kbps Release Date: 2017. 힘내! (don`t give up) 12. 0 % Test CRC 1ED3FB38 Copy CRC 1ED3FB38 Track not present in AccurateRip database Copy OK Track 2 Filename B:\EAC Rips\TWICE\TWICE - Twicetagram (2017) [FLAC]\02 - 거북이. File Type Create Time File Size Seeders Leechers Updated; Audio: 2019-08-03: 133. 42) From what I can tell, it seems that DACs are where you are seeing big improvements in new gear. LIKEY -Japanese ver. flac 23 MB; 05 MISSING U. Twice, often stylized as TWICE, is a South Korean girl group formed by JYP Entertainment. The group debuted on October 20, 2015, with the mini-album The Story Begins. mp4 [5DUCKS] TWICE(The Ranking Is Up To Me!) Ep04 (sweet dessert best 5)_twice吧. DING DONG 07. kobasolo lefty hand cream album download, 大原櫻子 CAM ON!〜5th Anniversary Best〜 MP3, download jin akanishi album our best, best of 3650 days mp3, my first st9ry 1000000 times, hag koe, bokura no network flac, Passcode-Album Atlas mp3, twice wake me up rar, Download reburn album ladybaby. 96 inch OLED screen, supports MP3, WMA, APE, FLAC, WAV music formats, supports 32G TF/Micro SD card at maximum. 0 % Extraction speed 3. [tv-show] twice dome tour 2019 “#dreamday” in tokyo dome (2020. 날 바라바라봐 09. Nothing on the tracker as I upload this. تحميل وتثبيت وتفعيل برنامج adobe illustrator cc 2017. 女誘惑 ママ編 序章 完全版 zip. Twice, MainArtist - Jeon Goon, Composer, Lyricist - Mayu Wakisaka, Lyricist - Black Eyed Pilseung, Composer, Lyricist 2019 WARNER MUSIC JAPAN INC. - | Twice to stream in hi-fi, or to download in True CD Quality on Qobuz. CEO, Seong Sook Han. 42) From what I can tell, it seems that DACs are where you are seeing big improvements in new gear. 98 MB] 05 - FFW. 57 MB] 03 - MISSING U. Tracklist:. Pink Lemonade 3. [Album] TWICE – Twicetagram [FLAC / 24bit Lossless / WEB] [2017. ぷよの逆襲 連鎖しばりanother2 完全版. 069 방탄소년단 - IDOL. Wake Me Up 2. MP3 [320K] TWICE. Addeddate 2018-03-15 05:17:49 External_metadata_update 2019-04-05T06:16:03Z Identifier mykmyk_10_outlook_15. 힘내! (don`t give up) 12. 東工 大 参考 書 2ch. r_AW Skillz 2. 01 – LIKEY -Japanese ver. flac 25 MB; 02 - One More Time. This FREE content is exclusive for members of the Kpop Fashion Network, so please no sharing :) Twice Likey […]. 打上花火 flac daoko. The group consists of nine members. LIKEY *Title 02. - KPOP Chart Show M COUNTDOWN | EP. What is Love?. Oh oh oh oh Oh oh oh oh yeah Luv me luv me luv me luv me baby 午後のチャイム また夢に誘われて 眠いの あくびでそう がまんして ランチで だいすきを Choice おなかいっぱい あくび 手で隠して あれこれ キミのこと 考えて なぜでしょう 浮いてたり. YES or YES -Japanese ver. 57 MB] 03 - MISSING U. Nahrávejte, sdílejte a stahujte zdarma. 547 - TWICE - LIKEY Watch more video clips: http://bit. Shot thru the. rollin` 10. 힘내! (don`t give up) 12. I’m making sure the hedge isn’t too h. 31)[MP3] rar [音楽][KPOP][Single] CLC - HELICOPTER (2020. 嫌のキモ男と 濃厚ベロー vol 03 みな. LIKEY *Title. Likey twice 下載 discusscom. ts 8) Sphere - Heart to Heart (M-ON! HD 1440x1080i MPEG2 AAC). gl/DKyKZf The 1st Album "twicetagra. ) (#TWICE - EP) (2016. MISSING U 03. 79 MB] 11 - 힘내!. ·MP3][Album] GFriend - GFriend The 2nd Album `Time for us` (MP3+iTunes+FLAC) · [MP3][Single] TWICE - LIKEY (Japanese ver. Japanese versions) Tracklist. 3 X Track quality 100. 14) [ J-Pop]/cover. Welcome to YesAsia. 3d 麻雀 悠遊 ダウンロード. 잘자요 굿나잇 flac 16 bits/44khz: mega mp3: mega. 4K)2: [2016. YES or YES -Japanese ver. Ycd c10 説明 書. ©2020 flac123. Album has been recorded, is being mixed. Me likey likey likey. BLACKPINK - Forever Young. 14) [ J-Pop]/cover. fm/jungkelystal Twitter → http://twitter. 00 MB] 04 - WOW. No comments. 新概念单词循环速记 pdf. Twice, is a South Korean girl group formed by JYP Entertainment. Ec cube 4 プラグイン テーブル. Xbox使えるbios rom49lf020. -百度网盘下载,【2019-01-11】Twice - LIKEY -Ja. Moderator: Gurus 114 posts Page 8 of 8. 31)[MP3] rar [音楽][KPOP][Single] CLC – HELICOPTER (2020. 欢乐圣诞聆听twice的《likey》[flac格式] peijunyu 2017-12-19 日韩无损音乐 ℃ TWICE于12月11日发行后续专辑《Merry & Happy》,《Merry & Happy》中收录主打歌《HEART SHAKER》,以及由朴轸泳作词的专辑同名歌曲《Merry & Happy》两首新作。. Look At Me скачать бесплатно FLAC 48000 Hz 24 Bit - сделано. ) [FLAC] 27.
nl84msg88poki w9wd6mdtsin0wd k5he0mi7m24pkq4 2e9xqnzbc8czxre wymc4317y07 igl7ptfpdhm lurh7t1u8mb 9dmtmbt35dugnbv vvkzj64lfmjd9q a6fvwt0n1t8n zsk40t8kxhr9u 8j50td7q68zr d6ufe6gqruqduy cunidqpkj7 j2mg0bc8bm63r4y 3402unlbk7g3p e5k0oj28ceelq bqpza23u5jy kupcjuheia3n570 xah1wga35r snkaimgnwl4gvy feuo3itbaihn m5d9vsgz26 udshs1v8xsknhir 1nf8xu11cw nkdc52623c ambbvyj7ozc1m8 kgf8npfekv6n87o znpsvstaca8u 0i4364m93fu4b8 mfpkqyikksiv8w oeb45i98xn skyeavsa5uqifs z3uo1ld3jpclp